Home » Peliculas » La Sirenita 2: Regreso al mar [MicroHD][1080p][AC3 5.1-Castellano-Ingles+Subs][Animac

La Sirenita 2: Regreso al mar [MicroHD][1080p][AC3 5.1-Castellano-Ingles+Subs][Animac

octubre 5th, 2013 Peliculas

Título original
The Little Mermaid II: Return to the Sea
Año
2000
Duración
75 min.
País
[Estados Unidos] Estados Unidos
Director
Jim Kammerud, Brian Smith
Guión
Elizabeth Anderson, Temple Mathews
Música
Danny Troob
Fotografía
Animation
Reparto
Animation
Productora
Walt Disney Pictures
Género
Animación. Musical. Aventuras. Infantil | Secuela. Mitología
Sinopsis
Ariel y el Príncipe Eric viven felices desde que por fin consiguieron casarse, superando todos los obstáculos a los que se enfrentaron en ”La Sirenita”, y ambos son padres de una preciosa niña, Melody. Ahora que la malvada Úrsula ya no existe, la vida sonríe a Ariel y al resto de la familia. Sin embargo, la llegada de la hermana de Úrsula, Morgana, pone en peligro el futuro de la pequeña. Para proteger a su hija, Ariel y Eric deciden no hablarle del pasado de Ariel como sirena, y construyen una enorme muralla para mantener el castillo aislado del mar… (FILMAFFINITY)

Mediainfo:

Código:

General
Format : Matroska
Format version : Version 4 / Version 2
File size : 3.42 GiB
Duration : 1h 15mn
Overall bit rate : 6 321 Kbps
Movie name : La Sirenita 2
Encoded date : UTC 2013-09-12 08:51:50
Writing application : mkvmerge v6.2.0 (‘Promised Land’) built on Apr 28 2013 12:22:01
Writing library : libebml v1.3.0 + libmatroska v1.4.0
Video
ID : 1
Format : AVC
Format/Info : Advanced Video Codec
Format profile : High@L4.1
Format settings, CABAC : Yes
Format settings, ReFrames : 3 frames
Codec ID : V_MPEG4/ISO/AVC
Duration : 1h 15mn
Bit rate : 5 238 Kbps
Width : 1 920 pixels
Height : 1 080 pixels
Display aspect ratio : 16:9
Frame rate mode : Constant
Frame rate : 23.976 fps
Color space : YUV
Chroma subsampling : 4:2:0
Bit depth : 8 bits
Scan type : Progressive
Bits/(Pixel*Frame) : 0.103
Stream size : 2.65 GiB (78%)
Title : La Sirenita 2
Writing library : x264 core 133 r2334 a3ac64b
Encoding settings : cabac=1 / ref=4 / deblock=1:-3:-3 / analyse=0×3:0×133 / me=umh / subme=10 / psy=1 / psy_rd=1.00:0.15 / mixed_ref=1 / me_range=16 / chroma_me=1 / trellis=2 / 8x8dct=1 / cqm=0 / deadzone=21,11 / fast_pskip=1 / chroma_qp_offset=-3 / threads=24 / lookahead_threads=2 / sliced_threads=0 / nr=0 / decimate=1 / interlaced=0 / bluray_compat=0 / constrained_intra=0 / bframes=5 / b_pyramid=1 / b_adapt=2 / b_bias=0 / direct=3 / weightb=1 / open_gop=0 / weightp=2 / keyint=240 / keyint_min=23 / scenecut=40 / intra_refresh=0 / rc_lookahead=60 / rc=2pass / mbtree=1 / bitrate=5138 / ratetol=1.0 / qcomp=0.60 / qpmin=0 / qpmax=69 / qpstep=4 / cplxblur=20.0 / qblur=0.5 / vbv_maxrate=50000 / vbv_bufsize=50000 / nal_hrd=none / ip_ratio=1.40 / aq=1:1.00
Language : English
Default : Yes
Forced : No
Audio #1
ID : 2
Format : AC-3
Format/Info : Audio Coding 3
Mode extension : CM (complete main)
Format settings, Endianness : Big
Codec ID : A_AC3
Duration : 1h 15mn
Bit rate mode : Constant
Bit rate : 640 Kbps
Channel(s) : 6 channels
Channel positions : Front: L C R, Side: L R, LFE
Sampling rate : 48.0 KHz
Bit depth : 16 bits
Compression mode : Lossy
Stream size : 344 MiB (10%)
Title : Castellano AC3 5.1
Language : Spanish
Default : Yes
Forced : No
Audio #2
ID : 3
Format : AC-3
Format/Info : Audio Coding 3
Mode extension : CM (complete main)
Format settings, Endianness : Big
Codec ID : A_AC3
Duration : 1h 15mn
Bit rate mode : Constant
Bit rate : 640 Kbps
Channel(s) : 6 channels
Channel positions : Front: L C R, Side: L R, LFE
Sampling rate : 48.0 KHz
Bit depth : 16 bits
Compression mode : Lossy
Stream size : 344 MiB (10%)
Title : Ingles AC3 5.1
Language : English
Default : No
Forced : No
Text #1
ID : 4
Format : UTF-8
Codec ID : S_TEXT/UTF8
Codec ID/Info : UTF-8 Plain Text
Title : sub.forz.es
Language : Spanish
Default : Yes
Forced : Yes
Text #2
ID : 5
Format : UTF-8
Codec ID : S_TEXT/UTF8
Codec ID/Info : UTF-8 Plain Text
Title : Completos
Language : Spanish
Default : No
Forced : No
Text #3
ID : 6
Format : UTF-8
Codec ID : S_TEXT/UTF8
Codec ID/Info : UTF-8 Plain Text
Title : Completos
Language : English
Default : No
Forced : No
Text #4
ID : 7
Format : UTF-8
Codec ID : S_TEXT/UTF8
Codec ID/Info : UTF-8 Plain Text
Title : Completos SDH
Language : English
Default : No
Forced : No
Text #5
ID : 8
Format : UTF-8
Codec ID : S_TEXT/UTF8
Codec ID/Info : UTF-8 Plain Text
Title : Forzados
Language : Spanish
Default : No
Forced : No
Text #6
ID : 9
Format : PGS
Muxing mode : zlib
Codec ID : S_HDMV/PGS
Codec ID/Info : The same subtitle format used on BDs/HD-DVDs
Title : Completos SDH (Bluray)
Language : English
Default : No
Forced : No
Text #7
ID : 10
Format : PGS
Muxing mode : zlib
Codec ID : S_HDMV/PGS
Codec ID/Info : The same subtitle format used on BDs/HD-DVDs
Title : Completos (Bluray)
Language : English
Default : No
Forced : No
Text #8
ID : 11
Format : PGS
Muxing mode : zlib
Codec ID : S_HDMV/PGS
Codec ID/Info : The same subtitle format used on BDs/HD-DVDs
Title : Completos (Bluray)
Language : Spanish
Default : No
Forced : No
Text #9
ID : 12
Format : PGS
Muxing mode : zlib
Codec ID : S_HDMV/PGS
Codec ID/Info : The same subtitle format used on BDs/HD-DVDs
Title : Completos (Bluray)
Language : Spanish
Default : No
Forced : No
Capturas:

Descarga(Uploaded + Bitshare):

[HIDE]Uploaded:

Código:

http://uploaded.net/file/pur0nnwv/La%20Sirenita%202%201080.7z.001

http://uploaded.net/file/uo4uh7ye/La%20Sirenita%202%201080.7z.002

http://uploaded.net/file/2vt22xc1/La%20Sirenita%202%201080.7z.003

http://uploaded.net/file/sno4v7wc/La%20Sirenita%202%201080.7z.004
Bitshare:

Código:

http://bitshare.com/files/jtoyhd8p/La-Sirenita-2-1080.7z.001.html

http://bitshare.com/files/k5xr0nxy/La-Sirenita-2-1080.7z.002.html

http://bitshare.com/files/g79qqyq6/La-Sirenita-2-1080.7z.003.html

http://bitshare.com/files/rcgnnpon/La-Sirenita-2-1080.7z.004.html
[/HIDE]

Etiquetas

la sirenita 2 1080p latino mega, La sirenita 2 mega co nz/|freakshare com/files/|rapidshare com/files|bitshare com/files/|depositfiles com/files|www uploadstation com/file/, la sirenita 2 regreso al mar descargar

Share this post to your friends!
facebook
twitter
stumbleupon
Delicious
reddit
Digg

Deja un COmentario para La Sirenita 2: Regreso al mar [MicroHD][1080p][AC3 5.1-Castellano-Ingles+Subs][Animac

You must be logged in to post a comment.



Posts Relacionados:


Grand Piano 2013 BrRip 720p Subtitulada MultiHost

febrero 14, 2014
Un pianista se sienta al piano y se encuentra una nota amenazadora, en la que se le conmina a ejecutar el mejor concierto de...

Dime cuándo, cómo y dónde – Noe Casado (Pdf, ePub y Mobi) (2013) UL

julio 3, 2013
SINOPSIS : Me gusta el sexo. Y mucho. »También me gusta pensar que sólo hay tres formas de obtenerlo: la más común, quizá, sea...

Tornado fuerza 6 (2012) DVDRip Castellano Acción.Thriller 1MEGA

febrero 17, 2014
Título Tornado fuerza 6Título original Christmas Twister (AKA F6: Twister)Año 2012Duración90 min.País Estados UnidosDirector Peter SullivanGuión Hanz Wasserburger, Peter SullivanMúsica Marc JovaniFotografía Roberto ScheinReparto...

G.I. Joe: El Contraataque 2013 DVDRip Latino MEGA

julio 15, 2013
G.I. Joe: El Contraataque 2013 DVDRip Latino MEGA Título Original: G.I. Joe: Retaliation (G.I. Joe 2) (GIJOE 2) (G.I.JOE 3D) Título en Español: G.I....